Harvey Street Kids - Season 1 | Atlántica | Bad Teacher
 


 

DNS SERVER AENDERNum der staatlichen Zensur zu umgehen. Sollten wir von eurem Provider geseprrt werden, nutzt den TOR BROWSER oder ändert euren DNS SERVER.

Filmwünsche können bei uns im Forum abgegeben werden

Wir Speichern Nicht




 
 
 
Top Releases
Solo.A.Star.Wars.Story.2018....
Solo.A.Star.Wars.Story.2018....
Loving.Pablo.2017.German.DL....
Life.2017.German.DL.1080p.Bl...
Loving.Pablo.2017.MULTi.COMP...
Loving.Pablo.2017.German.720...
Gutland.2017.German.1080p.WE...
Gutland.2017.German.720p.WEB...
Der.Bankier.des.Widerstands....
Der.Bankier.des.Widerstands....

Cinedubs
Mission.Impossible.Fallout.G...
Mission.Impossible.Fallout.G...
Sicario.2.2018.German.AC3MD....
Sicario.2.2018.German.AC3MD....
The.Rider.2017.GERMAN.DL.AC3...
The.Rider.2017.GERMAN.DL.AC3...
Solo.A.Star.Wars.Story.2018....
Solo.A.Star.Wars.Story.2018....
Jurassic.World.2.Das.gefalle...
Ant-Man.and.the.Wasp.TS.LD.G...

Neuerscheinungen 2017-18
Die.Mafiosi.Braut.Married.to...
Time.Breaker.Get.Mean.1975.M...
Die.Biene.Maja.2.Die.Honigsp...
Die.Biene.Maja.2.Die.Honigsp...
Christine.1983.COMPLETE.UHD....
Anatomie.einer.Entfuehrung.T...
Die.Haut.des.Wolfes.2018.Ger...
Die.Haut.des.Wolfes.2018.Ger...
Violet.Evergarden.Vol1.D1.20...
The.Hurricane.Heist.2018.MUL...

XXX
GiveMePink.18.09.04.Anita.Be...
KarupsHA.18.09.03.Katra.Coll...
MomKnowsBest.18.09.04.Kira.N...
HotGuysFuck.18.08.24.Ty.Jaso...
GrandpasFuckTeens.18.09.04.S...
InTheCrack.E1445.Kalina.Ryu....
JulesJordan.18.09.04.Ashley....
GirlfriendsFilms.Women.Seeki...
HuCows.18.08.25.Cindy.And.Ni...
HotGuysFuck.18.08.31.Ian.Bor...
ImmoralLive.18.09.04.Cherry....
GirlfriendsFilms.Twisted.Pas...
JaysPOV.18.09.03.Hannah.Hays...
MomDrips.18.09.02.Blaten.Lee...
HotLegsAndFeet.18.09.04.Mary...
Hegre.18.09.04.Learn.Lingam....
NaughtyOffice.18.09.04.Arian...
JapanHDV.18.09.04.Yui.Hatano...
GiveMeSpunk.18.09.04.Kayla.C...
HardX.18.09.04.Anna.Bell.Pea...

3D
Die.Biene.Maja.2.Die.Honigsp...
Avengers.Infinity.War.3D.201...
Avengers.Infinity.War.3D.201...
Rampage.Big.Meets.Bigger.3D....
Rampage.Big.Meets.Bigger.3D....
Rampage.Big.Meets.Bigger.3D....
Winter.Games.3D.2013.DUAL.CO...
Tomb.Raider.3D.2018.German.7...
Rampage.Big.Meets.Bigger.3D....
Rampage.Big.Meets.Bigger.3D....
Tomb.Raider.3D.2018.MULTi.CO...
Pacific.Rim.Uprising.3D.2018...
Ready.Player.One.3D.2018.Ger...
Rampage.-.Big.Meets.Bigger.2...
Ready.Player.One.2018.3D.HOU...

Old_Stuff
How.I.Met.Your.Mother.S02.Ge...
Akte.X.S01.German.DTS.DL.108...
Den.Himmel.gibts.echt.DL.108...
Vikings.S02.German.DL.1080p....
Be.Kind.Rewind.Abgedreht.200...
Be.Kind.Rewind.Abgedreht.200...
Dracula.The.Dark.Lord.2012.G...
21.2008.German.DL.1080p.BluR...
Achtung.fertig.WK.Swissgerma...
The.Ouija.Exorcism.2015.MULT...
Meine.liebe.Rabenmutter.germ...
Da.Vincis.Demons.S01.Complet...
Eragon.Das.Vermaechtnis.der....
Adele.und.das.Geheimnis.des....
Die.fabelhafte.Welt.der.Amel...

Filme
Stand.by.Me.Das.Geheimnis.ei...
Premium.Rush.2012.German.AC3...
Death.Race.2.UNRATED.2010.Ge...
Abandon.Ein.moerderisches.Sp...
The.Handmaids.Tale.S02.Germa...
The.Handmaids.Tale.S02.Germa...
The.Last.Man.On.Earth.S04.Ge...
The.Last.Man.On.Earth.S04.Ge...
Stand.by.Me.Das.Geheimnis.ei...
Stand.by.Me.1986.German.DL.1...
Global.Storm.Die.finale.Kata...
Wendy.2.Freundschaft.fuer.im...
Loewen.aus.zweiter.Hand.2003...
Der.Chaoten-Cop.aka.Heart.Co...
The.Red.Road.S01.-.S02.COMPL...
Schrei.nach.Freiheit.1987.10...
Der.Wilde.Schlag.meines.Herz...
Deadpool.2.Super.Duper.Cut.2...
Death.Race.EXTENDED.2008.Ger...
Briefe.an.Gott.Letters.to.Go...
Batman.haelt.die.Welt.in.Ate...
Russkies.1987.German.AC3D.DL...
Russkies.1987.German.AC3D.DL...
Jack.Ryan.Shadow.Recruit.201...

 
 
Stand.by.Me.Das.Geheimnis.eines.Sommers.1986.German.AC3.DL.1080p.BluRay.x265-FuN
Jahr: 1986
Genre: Abenteuer | Drama
Sprache: Deutsch AC3 | Englisch AC3
Laufzeit: 1h 28mn
Bitrate: 6 322 Kbps
Format: MKV
Größe: 3.92 GiB
Release:

Beschreibung:

Sommer in Castle Rock, einer idyllischen Kleinstadt im US-Bundesstaat Oregon. Schon seit Tagen verfolgen Gordie, Chris, Teddy und Vern von ihrem Baumhaus aus die Radio-Meldungen über einen Jungen, der vom Blaubeerpflücken nicht zurückkehrte. Es heisst, dass der Junge von einem Zug überfahren wurde und dass die entsetzlich zugerichtete Leiche jetzt irgendwo neben den Gleisen liege. Vern und seine Freunde stellen sich vor, wie aufregend es doch wäre, nach dem Toten zu suchen. Beflügelt von dem Wunsch, als Helden gefeiert zu werden, machen sie sich auf den anstrengenden, abenteuerlichen Marsch quer durch die Bergwelt Oregons.




Format                                   : Matroska
Format version                           : Version 4 / Version 2
File size                                : 3.92 GiB
Duration                                 : 1h 28mn
Overall bit rate                         : 6 322 Kbps
Encoded date                             : UTC 2018-09-12 16:44:26
Writing application                      : mkvmerge v10.0.0 ('To Drown In You') 64bit
Writing library                          : libebml v1.3.4 + libmatroska v1.4.5
DURATION                                 : 01:22:28.308000000
NUMBER_OF_FRAMES                         : 1094
NUMBER_OF_BYTES                          : 4288478
_STATISTICS_WRITING_APP                  : mkvmerge v10.0.0 ('To Drown In You') 64bit
_STATISTICS_WRITING_DATE_UTC             : 2018-09-12 16:44:26
_STATISTICS_TAGS                         : BPS DURATION NUMBER_OF_FRAMES NUMBER_OF_BYTES

Video
ID                                       : 1
Format                                   : HEVC
Format/Info                              : High Efficiency Video Coding
Format profile                           : [email protected]
Codec ID                                 : V_MPEGH/ISO/HEVC
Duration                                 : 1h 28mn
Bit rate                                 : 5 428 Kbps
Width                                    : 1 920 pixels
Height                                   : 1 040 pixels
Display aspect ratio                     : 1.85:1
Frame rate mode                          : Constant
Frame rate                               : 23.976 fps
Color space                              : YUV
Chroma subsampling                       : 4:2:0
Bit depth                                : 8 bits
Bits/(Pixel*Frame)                       : 0.113
Stream size                              : 3.36 GiB (86%)
Writing library                          : x265 2.8:[Windows][GCC 7.1.0][64 bit] 8bit+10bit+12bit
Encoding settings                        : cpuid=1111039 / frame-threads=3 / numa-pools=8 / wpp / no-pmode / no-pme / no-psnr / no-ssim / log-level=2 / input-csp=1 / input-res=1920x1040 / interlace=0 / total-frames=0 / level-idc=0 / high-tier=1 / uhd-bd=0 / ref=3 / no-allow-non-conformance / no-repeat-headers / annexb / no-aud / no-hrd / info / hash=0 / no-temporal-layers / open-gop / min-keyint=24 / keyint=240 / gop-lookahead=0 / bframes=4 / b-adapt=2 / b-pyramid / bframe-bias=0 / rc-lookahead=20 / lookahead-slices=6 / scenecut=40 / radl=0 / no-intra-refresh / ctu=64 / min-cu-size=8 / no-rect / no-amp / max-tu-size=32 / tu-inter-depth=1 / tu-intra-depth=1 / limit-tu=0 / rdoq-level=0 / dynamic-rd=0.00 / no-ssim-rd / signhide / no-tskip / nr-intra=0 / nr-inter=0 / no-constrained-intra / no-strong-intra-smoothing / max-merge=2 / limit-refs=3 / no-limit-modes / me=1 / subme=2 / merange=57 / temporal-mvp / weightp / no-weightb / no-analyze-src-pics / deblock=0:0 / no-sao / no-sao-non-deblock / rd=3 / no-early-skip / rskip / no-fast-intra / no-tskip-fast / no-cu-lossless / no-b-intra / no-splitrd-skip / rdpenalty=0 / psy-rd=2.00 / psy-rdoq=0.00 / no-rd-refine / no-lossless / cbqpoffs=0 / crqpoffs=0 / rc=crf / crf=23.0 / qcomp=0.60 / qpstep=4 / stats-write=0 / stats-read=0 / ipratio=1.40 / pbratio=1.30 / aq-mode=1 / aq-strength=1.00 / cutree / zone-count=0 / no-strict-cbr / qg-size=32 / no-rc-grain / qpmax=69 / qpmin=0 / no-const-vbv / sar=1 / overscan=0 / videoformat=5 / range=0 / colorprim=1 / transfer=1 / colormatrix=1 / chromaloc=0 / display-window=0 / max-cll=0,0 / min-luma=0 / max-luma=255 / log2-max-poc-lsb=8 / vui-timing-info / vui-hrd-info / slices=1 / no-opt-qp-pps / no-opt-ref-list-length-pps / no-multi-pass-opt-rps / scenecut-bias=0.05 / no-opt-cu-delta-qp / no-aq-motion / no-hdr / no-hdr-opt / no-dhdr10-opt / no-idr-recovery-sei / analysis-reuse-level=5 / scale-factor=0 / refine-intra=0 / refine-inter=0 / refine-mv=0 / no-limit-sao / ctu-info=0 / no-lowpass-dct / refine-mv-type=0 / copy-pic=1 / max-ausize-factor=1.0 / no-dynamic-refine / no-single-sei
Default                                  : Yes
Forced                                   : No
DURATION                                 : 01:28:44.319000000
NUMBER_OF_FRAMES                         : 127656
NUMBER_OF_BYTES                          : 3686675066
_STATISTICS_WRITING_APP                  : mkvmerge v10.0.0 ('To Drown In You') 64bit
_STATISTICS_WRITING_DATE_UTC             : 2018-09-12 16:44:26
_STATISTICS_TAGS                         : BPS DURATION NUMBER_OF_FRAMES NUMBER_OF_BYTES

Audio #1
ID                                       : 2
Format                                   : AC-3
Format/Info                              : Audio Coding 3
Mode extension                           : CM (complete main)
Format settings, Endianness              : Big
Codec ID                                 : A_AC3
Duration                                 : 1h 28mn
Bit rate mode                            : Constant
Bit rate                                 : 384 Kbps
Channel(s)                               : 6 channels
Channel positions                        : Front: L C R, Side: L R, LFE
Sampling rate                            : 48.0 KHz
Bit depth                                : 16 bits
Compression mode                         : Lossy
Delay relative to video                  : -5ms
Stream size                              : 244 MiB (6%)
Title                                    : Surround
Language                                 : German
Default                                  : Yes
Forced                                   : No
DURATION                                 : 01:28:44.320000000
NUMBER_OF_FRAMES                         : 166385
NUMBER_OF_BYTES                          : 255567360
_STATISTICS_WRITING_APP                  : mkvmerge v10.0.0 ('To Drown In You') 64bit
_STATISTICS_WRITING_DATE_UTC             : 2018-09-12 16:44:26
_STATISTICS_TAGS                         : BPS DURATION NUMBER_OF_FRAMES NUMBER_OF_BYTES

Audio #2
ID                                       : 3
Format                                   : AC-3
Format/Info                              : Audio Coding 3
Mode extension                           : CM (complete main)
Format settings, Endianness              : Big
Codec ID                                 : A_AC3
Duration                                 : 1h 28mn
Bit rate mode                            : Constant
Bit rate                                 : 384 Kbps
Channel(s)                               : 6 channels
Channel positions                        : Front: L C R, Side: L R, LFE
Sampling rate                            : 48.0 KHz
Bit depth                                : 16 bits
Compression mode                         : Lossy
Delay relative to video                  : -5ms
Stream size                              : 244 MiB (6%)
Title                                    : Surround
Language                                 : English
Default                                  : No
Forced                                   : No
DURATION                                 : 01:28:44.320000000
NUMBER_OF_FRAMES                         : 166385
NUMBER_OF_BYTES                          : 255567360
_STATISTICS_WRITING_APP                  : mkvmerge v10.0.0 ('To Drown In You') 64bit
_STATISTICS_WRITING_DATE_UTC             : 2018-09-12 16:44:26
_STATISTICS_TAGS                         : BPS DURATION NUMBER_OF_FRAMES NUMBER_OF_BYTES

Text #1
ID                                       : 4
Format                                   : ASS
Codec ID                                 : S_TEXT/ASS
Codec ID/Info                            : Advanced Sub Station Alpha
Compression mode                         : Lossless
Title                                    : German Forced
Language                                 : German
Default                                  : Yes
Forced                                   : Yes
DURATION                                 : 00:00:04.415000000
NUMBER_OF_FRAMES                         : 1
NUMBER_OF_BYTES                          : 53
_STATISTICS_WRITING_APP                  : mkvmerge v10.0.0 ('To Drown In You') 64bit
_STATISTICS_WRITING_DATE_UTC             : 2018-09-12 16:44:26
_STATISTICS_TAGS                         : BPS DURATION NUMBER_OF_FRAMES NUMBER_OF_BYTES

Text #2
ID                                       : 5
Format                                   : VobSub
Muxing mode                              : zlib
Codec ID                                 : S_VOBSUB
Codec ID/Info                            : The same subtitle format used on DVDs
Title                                    : German
Language                                 : German
Default                                  : No
Forced                                   : No

Text #3
ID                                       : 6
Format                                   : VobSub
Muxing mode                              : zlib
Codec ID                                 : S_VOBSUB
Codec ID/Info                            : The same subtitle format used on DVDs
Title                                    : Englisch
Language                                 : English
Default                                  : No
Forced                                   : No



Download:
Share Online Share OnlineShare OnlineShare Online
 

Kommentare