Elijah Kelley | Tek Parça | The First
 


 

DNS SERVER AENDERNum der staatlichen Zensur zu umgehen. Sollten wir von eurem Provider geseprrt werden, nutzt den TOR BROWSER oder ändert euren DNS SERVER.

Filmwünsche können bei uns im Forum abgegeben werden

Wir Speichern Nicht




 
 
 
Top Releases
Der.Engel.2018.German.DL.108...
Der.Engel.2018.German.DL.720...
Der.Buchladen.der.Florance.G...
Der.Buchladen.der.Florance.G...
Loving.Pablo.2017.German.AC3...
Solo.A.Star.Wars.Story.2018....
Solo.A.Star.Wars.Story.2018....
Das.Alibi.Spiel.der.Macht.20...
Loving.Pablo.2017.German.DL....
Life.2017.German.DL.1080p.Bl...

Cinedubs
Mission.Impossible.Fallout.G...
Mission.Impossible.Fallout.G...
Sicario.2.2018.German.AC3MD....
Sicario.2.2018.German.AC3MD....
The.Rider.2017.GERMAN.DL.AC3...
The.Rider.2017.GERMAN.DL.AC3...
Solo.A.Star.Wars.Story.2018....
Solo.A.Star.Wars.Story.2018....
Jurassic.World.2.Das.gefalle...
Ant-Man.and.the.Wasp.TS.LD.G...

Neuerscheinungen 2017-18
Land.der.Gewohnheiten.2018.G...
Land.der.Gewohnheiten.2018.G...
Four.Riders.1972.MULTi.COMPL...
Die.Schlange.im.Schatten.des...
I.Feel.Pretty.2018.MULTI.COM...
Blei.ist.sein.Lohn.Hands.of....
Die.Mafiosi.Braut.Married.to...
Time.Breaker.Get.Mean.1975.M...
Die.Biene.Maja.2.Die.Honigsp...
Die.Biene.Maja.2.Die.Honigsp...

XXX
MomsBangTeens.18.09.04.Karme...
MetArt.18.09.04.Cristin.Pant...
MetArtX.18.09.04.Alexis.Crys...
HuCows.18.09.01.Penny.Pocket...
Hustler.18.09.04.Brenna.Spar...
MilfHunter.18.09.03.Ariella....
GirlfriendsFilms.Women.Seeki...
MeloneChallenge.18.09.01.Wen...
GirlfriendsFilms.Twisted.Pas...
MyFriendsHotMom.18.09.03.Rea...
GiveMePink.18.09.04.Anita.Be...
KarupsHA.18.09.03.Katra.Coll...
MomKnowsBest.18.09.04.Kira.N...
HotGuysFuck.18.08.24.Ty.Jaso...
GrandpasFuckTeens.18.09.04.S...
InTheCrack.E1445.Kalina.Ryu....
JulesJordan.18.09.04.Ashley....
GirlfriendsFilms.Women.Seeki...
HuCows.18.08.25.Cindy.And.Ni...
HotGuysFuck.18.08.31.Ian.Bor...

3D
Die.Biene.Maja.2.Die.Honigsp...
Avengers.Infinity.War.3D.201...
Avengers.Infinity.War.3D.201...
Rampage.Big.Meets.Bigger.3D....
Rampage.Big.Meets.Bigger.3D....
Rampage.Big.Meets.Bigger.3D....
Winter.Games.3D.2013.DUAL.CO...
Tomb.Raider.3D.2018.German.7...
Rampage.Big.Meets.Bigger.3D....
Rampage.Big.Meets.Bigger.3D....
Tomb.Raider.3D.2018.MULTi.CO...
Pacific.Rim.Uprising.3D.2018...
Ready.Player.One.3D.2018.Ger...
Rampage.-.Big.Meets.Bigger.2...
Ready.Player.One.2018.3D.HOU...

Old_Stuff
How.I.Met.Your.Mother.S02.Ge...
Akte.X.S01.German.DTS.DL.108...
Den.Himmel.gibts.echt.DL.108...
Vikings.S02.German.DL.1080p....
Be.Kind.Rewind.Abgedreht.200...
Be.Kind.Rewind.Abgedreht.200...
Dracula.The.Dark.Lord.2012.G...
21.2008.German.DL.1080p.BluR...
Achtung.fertig.WK.Swissgerma...
The.Ouija.Exorcism.2015.MULT...
Meine.liebe.Rabenmutter.germ...
Da.Vincis.Demons.S01.Complet...
Eragon.Das.Vermaechtnis.der....
Adele.und.das.Geheimnis.des....
Die.fabelhafte.Welt.der.Amel...

Filme
Early.Man.Steinzeit.bereit.2...
BoJack.Horseman.S05.COMPLETE...
Krieg.und.Frieden.1967.Germa...
Wild.America.1997.German.AC3...
BoJack.Horseman.S05.COMPLETE...
Just.Friends.No.Sex.aka.Wild...
American.Vandal.S02.COMPLETE...
American.Vandal.S02.COMPLETE...
The.Flash.2014.S04.GERMAN.10...
Once.Upon.a.Time.S07.German....
Once.Upon.a.Time.S07.German....
Mr.Mercedes.S02.German.DD+51...
Mr.Mercedes.S02.German.DD+51...
What.Happened.to.Monday.2017...
Duma.Mein.Freund.aus.der.Wil...
Brake.2012.German.AC3.DL.108...
Die.grellen.Lichter.der.Gros...
Stand.by.Me.Das.Geheimnis.ei...
Premium.Rush.2012.German.AC3...
Death.Race.2.UNRATED.2010.Ge...
Abandon.Ein.moerderisches.Sp...
The.Handmaids.Tale.S02.Germa...
The.Handmaids.Tale.S02.Germa...
The.Last.Man.On.Earth.S04.Ge...

 
 
Der.Buchladen.der.Florance.Green.2017.German.DL.1080p.BluRay.x264-ENCOUNTERS
Jahr: 2017
Genre: Drama
Sprache: Deutsch DTS | Englisch DTS
Laufzeit: 1h 52mn
Bitrate: 7 351 Kbps
Format: MKV
Größe: 5.78 GiB
Release:

Beschreibung:

Florence Green (Emily Mortimer) hat früh ihren Mann verloren, doch ihre gemeinsame Liebe zu Büchern aller Art lässt sie nicht los. Sie investiert ihr gesamtes Vermögen in die Verwirklichung ihres Traums von einem eigenen Buchladen – ausgerechnet im verträumten englischen Hardborough am Ende der 50er-Jahre, wo die Arbeiter dem Bücherlesen skeptisch gegenüberstehen und die Aristokratie energisch vorgibt, was Hochkultur ist und was nicht.Doch trotz der Widerstände hat sie Erfolg und rasch finden auch progressive, polarisierende Werke wie Nabokovs „Lolita“ oder Bradburys „Fahrenheit 451 “ bei den Dorfbewohnern Anklang. Vor allem der seit Langem zurückgezogen lebende Edmund Brundish (Bill Nighy) findet Gefallen am neuen Buchladen und dessen Besitzerin.Doch Florence Greens sanfte Kulturrevolution bleibt nicht unbemerkt: Die alteingesessene graue Eminenz Violet Gamart (Patricia Clarkson) befürchtet einen Kontrollverlust in ihrem Heimatdorf und steht den radikalen Veränderungen mit Argwohn gegenüber. Mit aller Macht versucht sie, Florence Green Steine in den Weg zu legen, und die beiden Frauen beginnen eine Auseinandersetzung über Moderne und Konvention.



Complete name                            : encounters-debudeflgr_1080p.mkv
Format                                   : Matroska
Format version                           : Version 4 / Version 2
File size                                : 5.78 GiB
Duration                                 : 1h 52mn
Overall bit rate                         : 7 351 Kbps
Encoded date                             : UTC 2018-09-14 09:51:08
Writing application                      : mkvmerge v14.0.0 ('Flow') 64bit
Writing library                          : libebml v1.3.4 + libmatroska v1.4.5
DURATION                                 : 01:42:50.292000000
NUMBER_OF_FRAMES                         : 7
NUMBER_OF_BYTES                          : 152
_STATISTICS_WRITING_APP                  : mkvmerge v14.0.0 ('Flow') 64bit
_STATISTICS_WRITING_DATE_UTC             : 2018-09-14 09:51:08
_STATISTICS_TAGS                         : BPS DURATION NUMBER_OF_FRAMES NUMBER_OF_BYTES

Video
ID                                       : 1
Format                                   : AVC
Format/Info                              : Advanced Video Codec
Format profile                           : [email protected]
Format settings, CABAC                   : Yes
Format settings, ReFrames                : 4 frames
Codec ID                                 : V_MPEG4/ISO/AVC
Duration                                 : 1h 52mn
Bit rate                                 : 4 187 Kbps
Width                                    : 1 920 pixels
Height                                   : 1 040 pixels
Display aspect ratio                     : 1.85:1
Frame rate mode                          : Constant
Frame rate                               : 24.000 fps
Color space                              : YUV
Chroma subsampling                       : 4:2:0
Bit depth                                : 8 bits
Scan type                                : Progressive
Bits/(Pixel*Frame)                       : 0.087
Stream size                              : 3.29 GiB (57%)
Writing library                          : x264 core 155 r2901 7d0ff22
Encoding settings                        : cabac=1 / ref=4 / deblock=1:-1:-1 / analyse=0x3:0x133 / me=umh / subme=7 / psy=1 / psy_rd=1.00:0.15 / mixed_ref=1 / me_range=16 / chroma_me=1 / trellis=1 / 8x8dct=1 / cqm=0 / deadzone=21,11 / fast_pskip=0 / chroma_qp_offset=-3 / threads=16 / lookahead_threads=2 / sliced_threads=0 / nr=0 / decimate=1 / interlaced=0 / bluray_compat=0 / constrained_intra=0 / bframes=3 / b_pyramid=2 / b_adapt=1 / b_bias=0 / direct=1 / weightb=1 / open_gop=0 / weightp=2 / keyint=250 / keyint_min=24 / scenecut=40 / intra_refresh=0 / rc_lookahead=40 / rc=crf / mbtree=1 / crf=20.0 / qcomp=0.60 / qpmin=0 / qpmax=69 / qpstep=4 / ip_ratio=1.40 / aq=1:1.00
Default                                  : Yes
Forced                                   : No

Audio #1
ID                                       : 2
Format                                   : DTS
Format/Info                              : Digital Theater Systems
Mode                                     : 16
Format settings, Endianness              : Big
Codec ID                                 : A_DTS
Duration                                 : 1h 52mn
Bit rate mode                            : Constant
Bit rate                                 : 1 509 Kbps
Channel(s)                               : 6 channels
Channel positions                        : Front: L C R, Side: L R, LFE
Sampling rate                            : 48.0 KHz
Bit depth                                : 24 bits
Compression mode                         : Lossy
Stream size                              : 1.19 GiB (21%)
Language                                 : German
Default                                  : Yes
Forced                                   : No

Audio #2
ID                                       : 3
Format                                   : DTS
Format/Info                              : Digital Theater Systems
Mode                                     : 16
Format settings, Endianness              : Big
Codec ID                                 : A_DTS
Duration                                 : 1h 52mn
Bit rate mode                            : Constant
Bit rate                                 : 1 509 Kbps
Channel(s)                               : 6 channels
Channel positions                        : Front: L C R, Side: L R, LFE
Sampling rate                            : 48.0 KHz
Bit depth                                : 24 bits
Compression mode                         : Lossy
Stream size                              : 1.19 GiB (21%)
Language                                 : English
Default                                  : No
Forced                                   : No

Text
ID                                       : 4
Format                                   : UTF-8
Codec ID                                 : S_TEXT/UTF8
Codec ID/Info                            : UTF-8 Plain Text
Language                                 : German
Default                                  : Yes
Forced                                   : Yes


Download:
Share Online Share OnlineShare OnlineShare Online
 

Kommentare