INSPACE 2980 rar | TV 5.83k | PUBG MOBILE
 


 

DNS SERVER AENDERNum der staatlichen Zensur zu umgehen. Sollten wir von eurem Provider geseprrt werden, nutzt den TOR BROWSER oder ändert euren DNS SERVER.

Filmwünsche können bei uns im Forum abgegeben werden

Wir Speichern Nicht




 
 
 
Top Releases
Outrage.Coda.GERMAN.2017.DL....
Outrage.Coda.GERMAN.2017.DL....
Solo.A.Star.Wars.Story.2018....
Early.Man.Steinzeit.bereit.2...
The.Kings.Ring.Die.Letzte.Sc...
Bleach.2018.German.DL.AC3.10...
Bleach.2018.German.DL.AC3.72...
Solo.A.Star.Wars.Story.2018....
Vorbilder.aka.Role.Models.UN...
Freddy.Eddy.2016.German.AC3....

Cinedubs
The.First.Purge.German.DL.AC...
The.First.Purge.German.DL.AC...
Hotel.Transsilvanien.3.Ein.M...
Hotel.Transsilvanien.3.Ein.M...
Meg.German.DL.AC3.Dubbed.720...
Meg.German.DL.AC3.Dubbed.108...
Jurassic.World.2.Das.gefalle...
Mission.Impossible.Fallout.G...
Mission.Impossible.Fallout.G...
Sicario.2.2018.German.AC3MD....

Neuerscheinungen 2017-18
Hes.Out.There.2018.GERMAN.DL...
Hes.Out.There.2018.GERMAN.DL...
Weltengaenger.2018.GERMAN.10...
Weltengaenger.2018.GERMAN.72...
Weltengaenger.2018.GERMAN.DU...
Zu.neuen.Ufern.1937.GERMAN.C...
Violet.Evergarden.Vol1.D1+2....
Robin.Hood.2010.MULTi.COMPLE...
Das.Blutbiest.The.Blood.Beas...
Der.Blaufuchs.1938.GERMAN.CO...

XXX
Boober.2.XXX.iNTERNAL.720p.W...
CherryPimps.18.09.10.Krissy....
BrownBunnies.18.09.07.Honey....
ATKHairy.18.09.09.Andy.Moon....
BrazzersExxtra.18.09.10.Lela...
BrattySis.18.09.07.Ashely.Oc...
WankItNow.17.10.03.Zoe.Page....
Beat.My.Beanbag.XXX.1080p.WE...
BrickYates.18.08.28.Alexis.C...
WoodmanCastingX.15.12.29.Ros...
Bang.RealTeens.18.09.10.Bamb...
WankItNow.17.10.04.Charlie.R...
ChicasLoca.18.09.10.Andreina...
ClaudiaMarie.18.09.07.Teen.D...
Babes.18.09.07.Misty.Stone.T...
WoodmanCastingX.15.12.05.Ley...
Babes.18.09.09.Gianna.Dior.B...
BrazzersExxtra.18.09.07.Vien...
WoodmanCastingX.15.07.26.Ann...
BadDaddyPOV.18.09.07.Sadie.H...

3D
Die.Biene.Maja.2.Die.Honigsp...
Avengers.Infinity.War.3D.201...
Avengers.Infinity.War.3D.201...
Rampage.Big.Meets.Bigger.3D....
Rampage.Big.Meets.Bigger.3D....
Rampage.Big.Meets.Bigger.3D....
Winter.Games.3D.2013.DUAL.CO...
Tomb.Raider.3D.2018.German.7...
Rampage.Big.Meets.Bigger.3D....
Rampage.Big.Meets.Bigger.3D....
Tomb.Raider.3D.2018.MULTi.CO...
Pacific.Rim.Uprising.3D.2018...
Ready.Player.One.3D.2018.Ger...
Rampage.-.Big.Meets.Bigger.2...
Ready.Player.One.2018.3D.HOU...

Old_Stuff
How.I.Met.Your.Mother.S02.Ge...
Akte.X.S01.German.DTS.DL.108...
Den.Himmel.gibts.echt.DL.108...
Vikings.S02.German.DL.1080p....
Be.Kind.Rewind.Abgedreht.200...
Be.Kind.Rewind.Abgedreht.200...
Dracula.The.Dark.Lord.2012.G...
21.2008.German.DL.1080p.BluR...
Achtung.fertig.WK.Swissgerma...
The.Ouija.Exorcism.2015.MULT...
Meine.liebe.Rabenmutter.germ...
Da.Vincis.Demons.S01.Complet...
Eragon.Das.Vermaechtnis.der....
Adele.und.das.Geheimnis.des....
Die.fabelhafte.Welt.der.Amel...

Filme
Better.Call.Saul.S04.German....
Better.Call.Saul.S04.German....
Hard.to.Fight.2004.German.AC...
Im.Land.der.Dinosaurier.2014...
Leon.der.Profi.1994.German.D...
Sie.leben.1988.Collectors.Ed...
Die.Maske.des.Fu-Manchu.1932...
Rapid.Fire.Uncut.1992.German...
Robin.Hood.2010.UNRATED.Germ...
Elementary.S06.GERMAN.DUBBED...
Timeless.S02.COMPLETE.German...
Timeless.S02.COMPLETE.German...
Timeless.S01.COMPLETE.German...
Timeless.S01.COMPLETE.German...
Fear.The.Walking.Dead.S04.Ge...
Fear.The.Walking.Dead.S04.Ge...
Modern.Family.S08.GERMAN.DUB...
Succession.S01.German.DD51.S...
Succession.S01.German.DD51.S...
Crazy.Ex.Girlfriend.S03.Germ...
Crazy.Ex.Girlfriend.S03.Germ...
Caramel.2007.German.1080p.Bl...
Still.Walking.2008.German.AC...
Mel.Brooks.Hoehenkoller.1977...

 
 
Weltengaenger.2018.GERMAN.720p.BluRay.x264-UNiVERSUM

Jahr: 2018
Genre: Fantasy
Sprache: Deutsch DTS
Laufzeit: 1h 55mn
Bitrate: 3 578 Kbps
Format: MKV
Größe: 2.89 GiB
Release:

Beschreibung:

Kirill ist ein junger und talentierter Computerspiel-Designer mit einem gut bezahlten Job und einer bildschönen Freundin. Er führt ein nahezu perfektes Leben – bis zu dem Tag, an dem sich alles ändert: In seiner Wohnung lebt plötzlich eine fremde Frau und weder Freunde noch Verwandte können sich an ihn erinnern. Es scheint, als wäre seine gesamte Existenz ausgelöscht worden. Auf der Suche nach Antworten findet Kirill heraus, dass er als „Weltengänger“, eine Art Wächter zwischen den Parallelwelten, auserwählt worden ist. Um sein früheres Leben zurückzugewinnen, muss Kirill das Rätsel um die geheimnisvollen Welten lösen – und entdeckt dabei etwas, das größer ist als alles, was er sich vorstellen kann …



Complete name                            : weltengaenger.2018.german.720p.bluray.x264-universum.mkv
Format                                   : Matroska
Format version                           : Version 4 / Version 2
File size                                : 2.89 GiB
Duration                                 : 1h 55mn
Overall bit rate                         : 3 578 Kbps
Encoded date                             : UTC 2018-09-15 15:17:06
Writing application                      : mkvmerge v7.9.0 ('Birds') 64bit
Writing library                          : libebml v1.3.1 + libmatroska v1.4.2
DURATION                                 : 01:06:42.499000000
NUMBER_OF_FRAMES                         : 12
NUMBER_OF_BYTES                          : 204
_STATISTICS_WRITING_APP                  : mkvmerge v7.9.0 ('Birds') 64bit
_STATISTICS_WRITING_DATE_UTC             : 2018-09-15 15:17:06
_STATISTICS_TAGS                         : BPS DURATION NUMBER_OF_FRAMES NUMBER_OF_BYTES

Video
ID                                       : 1
Format                                   : AVC
Format/Info                              : Advanced Video Codec
Format profile                           : [email protected]
Format settings, CABAC                   : Yes
Format settings, ReFrames                : 5 frames
Codec ID                                 : V_MPEG4/ISO/AVC
Duration                                 : 1h 55mn
Bit rate                                 : 1 998 Kbps
Width                                    : 1 280 pixels
Height                                   : 536 pixels
Display aspect ratio                     : 2.40:1
Frame rate mode                          : Constant
Frame rate                               : 24.000 fps
Color space                              : YUV
Chroma subsampling                       : 4:2:0
Bit depth                                : 8 bits
Scan type                                : Progressive
Bits/(Pixel*Frame)                       : 0.121
Stream size                              : 1.61 GiB (56%)
Writing library                          : x264 core 155 r2901 7d0ff22
Encoding settings                        : cabac=1 / ref=5 / deblock=1:-1:-1 / analyse=0x3:0x133 / me=umh / subme=8 / psy=1 / psy_rd=1.00:0.15 / mixed_ref=1 / me_range=16 / chroma_me=1 / trellis=2 / 8x8dct=1 / cqm=0 / deadzone=21,11 / fast_pskip=0 / chroma_qp_offset=-3 / threads=12 / lookahead_threads=2 / sliced_threads=0 / nr=0 / decimate=1 / interlaced=0 / bluray_compat=0 / constrained_intra=0 / bframes=3 / b_pyramid=2 / b_adapt=1 / b_bias=0 / direct=3 / weightb=1 / open_gop=0 / weightp=2 / keyint=250 / keyint_min=24 / scenecut=40 / intra_refresh=0 / rc_lookahead=40 / rc=crf / mbtree=1 / crf=20.0 / qcomp=0.60 / qpmin=10 / qpmax=69 / qpstep=4 / ip_ratio=1.40 / aq=1:1.00
Language                                 : German
Default                                  : Yes
Forced                                   : No
DURATION                                 : 01:55:34.959000000
NUMBER_OF_FRAMES                         : 166439
NUMBER_OF_BYTES                          : 1791444651
_STATISTICS_WRITING_APP                  : mkvmerge v7.9.0 ('Birds') 64bit
_STATISTICS_WRITING_DATE_UTC             : 2018-09-15 15:17:06
_STATISTICS_TAGS                         : BPS DURATION NUMBER_OF_FRAMES NUMBER_OF_BYTES

Audio
ID                                       : 2
Format                                   : DTS
Format/Info                              : Digital Theater Systems
Mode                                     : 16
Format settings, Endianness              : Big
Codec ID                                 : A_DTS
Duration                                 : 1h 55mn
Bit rate mode                            : Constant
Bit rate                                 : 1 509 Kbps
Channel(s)                               : 6 channels
Channel positions                        : Front: L C R, Side: L R, LFE
Sampling rate                            : 48.0 KHz
Bit depth                                : 24 bits
Compression mode                         : Lossy
Stream size                              : 1.22 GiB (42%)
Title                                    : DTS
Language                                 : German
Default                                  : Yes
Forced                                   : No

Text
ID                                       : 3
Format                                   : UTF-8
Codec ID                                 : S_TEXT/UTF8
Codec ID/Info                            : UTF-8 Plain Text
Title                                    : Forced
Language                                 : German
Default                                  : Yes
Forced                                   : No


Download:
Share Online Share OnlineShare OnlineShare Online
 

Kommentare