Sawal 700 Crore Dollar Ka (2016) Urdu Movie HDTVRip | 720p | 480p | Скачать | Strenuous Life
 


 

DNS SERVER AENDERNum der staatlichen Zensur zu umgehen. Sollten wir von eurem Provider geseprrt werden, nutzt den TOR BROWSER oder ändert euren DNS SERVER.

Filmwünsche können bei uns im Forum abgegeben werden

Wir Speichern Nicht




 
 
 
Top Releases
Chappie.2015.German.AC3.DL.1...
Solo.A.Star.Wars.Story.2018....
Der.Buchladen.der.Florance.G...
Jurassic.World.2.Das.gefalle...
Jurassic.World.2.Das.gefalle...
Racer.and.the.Jailbird.2017....
Racer.and.the.Jailbird.2017....
Racer.and.the.Jailbird.2017....
The.Girl.on.Train.2016.PROPE...
Solo.A.Star.Wars.Story.2018....

Cinedubs
First.Reformed.German.DL.AC3...
The.First.Purge.2018.German....
No.Way.Out.Gegen.die.Flammen...
First.Reformed.German.DL.AC3...
First.Reformed.German.DL.AC3...
The.First.Purge.German.DL.AC...
The.First.Purge.German.DL.AC...
Book.Club.Das.Beste.kommt.n...
Book.Club.Das.Beste.kommt.n...
Sicario.2.2018.German.AC3MD....

Neuerscheinungen 2017-18
The.Hurricane.Heist.2018.Ger...
Alte.Zoepfe.2018.German.DL.1...
Alte.Zoepfe.2018.German.DL.7...
Gosford.Park.2001.MULTi.COMP...
Steig.Nicht.Aus.2018.German....
Steig.Nicht.Aus.2018.German....
Triassic.World.2018.German.7...
Triassic.World.2018.German.D...
Steig.Nicht.Aus.2018.GERMAN....
Triassic.World.2018.MULTi.CO...

XXX
GroupSexGames.18.09.09.Wendy...
HerLimit.18.09.07.Giorgia.Ro...
Granny.Goes.Hard.XXX.1080p.W...
Horny.Shopping.Tour.XXX.720p...
ATKGirlfriends.18.09.10.Lucy...
From.Teen.Ass.To.Teen.Mouth....
GirlsOutWest.18.09.10.Trilli...
Huge.Nipples.Huge.Tits.23.XX...
HouseOfTaboo.18.09.07.Molly....
GirlsOutWest.18.09.09.Jessie...
ATKHairy.18.09.09.Helen.Volg...
GroupBanged.18.09.10.Horny.B...
Granny.Goes.Hard.XXX.720p.WE...
Hole.Lotta.Love.3.XXX.1080p....
Huge.Nipples.Huge.Tits.23.XX...
GangbangCreampie.18.09.07.G1...
Horny.Shopping.Tour.XXX.1080...
HardX.18.09.07.Candice.Dare....
GirlsGoneWild.18.09.03.Brook...
FullyClothedPissing.18.09.09...

3D
Solo.A.Star.Wars.Story.3D.20...
Solo.A.Star.Wars.Story.3D.20...
Die.Biene.Maja.2.Die.Honigsp...
Avengers.Infinity.War.3D.201...
Avengers.Infinity.War.3D.201...
Rampage.Big.Meets.Bigger.3D....
Rampage.Big.Meets.Bigger.3D....
Rampage.Big.Meets.Bigger.3D....
Winter.Games.3D.2013.DUAL.CO...
Tomb.Raider.3D.2018.German.7...
Rampage.Big.Meets.Bigger.3D....
Rampage.Big.Meets.Bigger.3D....
Tomb.Raider.3D.2018.MULTi.CO...
Pacific.Rim.Uprising.3D.2018...
Ready.Player.One.3D.2018.Ger...

Old_Stuff
How.I.Met.Your.Mother.S02.Ge...
Akte.X.S01.German.DTS.DL.108...
Den.Himmel.gibts.echt.DL.108...
Vikings.S02.German.DL.1080p....
Be.Kind.Rewind.Abgedreht.200...
Be.Kind.Rewind.Abgedreht.200...
Dracula.The.Dark.Lord.2012.G...
21.2008.German.DL.1080p.BluR...
Achtung.fertig.WK.Swissgerma...
The.Ouija.Exorcism.2015.MULT...
Meine.liebe.Rabenmutter.germ...
Da.Vincis.Demons.S01.Complet...
Eragon.Das.Vermaechtnis.der....
Adele.und.das.Geheimnis.des....
Die.fabelhafte.Welt.der.Amel...

Filme
The.Transporter.Refueled.201...
Pulse.1988.German.Dubbed.DL....
Mordrezepte.der.Barbouzes.19...
Homeland.S07.German.DL.1080p...
Homeland.S07.German.DL.720p....
iZombie.S04.German.DD51.Dubb...
iZombie.S04.German.DD51.Dubb...
Akte.X.S02.COMPLETE.German.A...
Das.Geheimnis.von.Green.Lake...
Fackeln.im.Sturm.aka.North.a...
Krieg.der.Eispiraten.-.The.I...
11.14.Elevenfourteen.2003.Ge...
Batman.S01.COMPLETE.German.A...
MotoGP.Moto2.Moto3.Saison.20...
Straw.Dogs.Wer.Gewalt.saet.2...
MotoGP.Moto2.Moto3.Saison.20...
Cardinal.S01D01+2.MULTi.COMP...
The.Flash.2014.S04.GERMAN.10...
Modern.Family.S08.GERMAN.DUB...
Modern.Family.S08.GERMAN.DUB...
Marvels.Agents.of.S.H.I.E.L....
Marvels.Agents.of.S.H.I.E.L....
Duff.Hast.du.keine.bist.du.e...
Zwischen.Himmel.und.Hoelle.1...

 
 
iZombie.S04.German.DD51.Dubbed.DL.1080p.AmazonHD.x264-TVS

Jahr: 2018
Genre: Komödie | Krimi | Drama
Sprache: Deutsch AC3 | Englisch AC3
Laufzeit: 40min je Folge
Bitrate: 11 Mbps
Format: MKV
Größe: 3,5 GB je Folge
Release:

Beschreibung:

In der 4. Staffel ist Seattle eine ummauerte Stadt, die ihre 10.000 Zombies davon abhalten soll, in den Rest von Amerika zu entkommen, während die Suche nach genügend Gehirnen, um die Zombie-Bevölkerung zu füttern, weitergeht. Während Olivia "Liv" Moore und Clive jede Woche Mordfälle lösen, arbeitet nun fast jeder Detektiv bei der Polizei in Seattle mit einem Zombie zusammen.

 

Enthaltene Folgen:

iZombie.S04E01.Bereit.fuer.die.Zombies.German.DD51.Dubbed.DL.1080p.AmazonHD.x264-TVS NEU



General
Complete name                            : iZombie.S04E01.Bereit.fuer.die.Zombies.German.DD51.Dubbed.DL.1080p.AmazonHD.x264-TVS\tvs-izob-dd51-ded-dl-18p-azhd-x264-401.mkv
Format                                   : Matroska
Format version                           : Version 4 / Version 2
File size                                : 3.82 GiB
Duration                                 : 40mn 38s
Overall bit rate mode                    : Variable
Overall bit rate                         : 13.5 Mbps
Encoded date                             : UTC 2018-09-22 11:23:49
Writing application                      : mkvmerge v26.0.0 ('In The Game') 64-bit
Writing library                          : libebml v1.3.6 + libmatroska v1.4.9
DURATION                                 : 00:40:05.951000000
NUMBER_OF_FRAMES                         : 767
NUMBER_OF_BYTES                          : 25939
_STATISTICS_WRITING_APP                  : mkvmerge v26.0.0 ('In The Game') 64-bit
_STATISTICS_WRITING_DATE_UTC             : 2018-09-22 11:23:49
_STATISTICS_TAGS                         : BPS DURATION NUMBER_OF_FRAMES NUMBER_OF_BYTES

Video
ID                                       : 1
Format                                   : AVC
Format/Info                              : Advanced Video Codec
Format profile                           : [email protected]
Format settings, CABAC                   : Yes
Format settings, ReFrames                : 4 frames
Codec ID                                 : V_MPEG4/ISO/AVC
Duration                                 : 40mn 38s
Bit rate mode                            : Variable
Bit rate                                 : 11.9 Mbps
Maximum bit rate                         : 15.0 Mbps
Width                                    : 1 920 pixels
Height                                   : 1 080 pixels
Display aspect ratio                     : 16:9
Frame rate mode                          : Constant
Frame rate                               : 25.000 fps
Color space                              : YUV
Chroma subsampling                       : 4:2:0
Bit depth                                : 8 bits
Scan type                                : Progressive
Bits/(Pixel*Frame)                       : 0.230
Stream size                              : 3.38 GiB (88%)
Language                                 : English
Default                                  : Yes
Forced                                   : No
Color primaries                          : BT.709
Transfer characteristics                 : BT.709
Matrix coefficients                      : BT.709

Audio #1
ID                                       : 2
Format                                   : AC-3
Format/Info                              : Audio Coding 3
Mode extension                           : CM (complete main)
Format settings, Endianness              : Big
Codec ID                                 : A_AC3
Duration                                 : 40mn 38s
Bit rate mode                            : Constant
Bit rate                                 : 640 Kbps
Channel(s)                               : 6 channels
Channel positions                        : Front: L C R, Side: L R, LFE
Sampling rate                            : 48.0 KHz
Bit depth                                : 16 bits
Compression mode                         : Lossy
Stream size                              : 186 MiB (5%)
Language                                 : German
Default                                  : Yes
Forced                                   : No

Audio #2
ID                                       : 3
Format                                   : AC-3
Format/Info                              : Audio Coding 3
Mode extension                           : CM (complete main)
Format settings, Endianness              : Big
Codec ID                                 : A_AC3
Duration                                 : 40mn 38s
Bit rate mode                            : Constant
Bit rate                                 : 640 Kbps
Channel(s)                               : 6 channels
Channel positions                        : Front: L C R, Side: L R, LFE
Sampling rate                            : 48.0 KHz
Bit depth                                : 16 bits
Compression mode                         : Lossy
Stream size                              : 186 MiB (5%)
Language                                 : English
Default                                  : No
Forced                                   : No

Text #1
ID                                       : 4
Format                                   : UTF-8
Codec ID                                 : S_TEXT/UTF8
Codec ID/Info                            : UTF-8 Plain Text
Language                                 : English
Default                                  : No
Forced                                   : No

Text #2
ID                                       : 5
Format                                   : UTF-8
Codec ID                                 : S_TEXT/UTF8
Codec ID/Info                            : UTF-8 Plain Text
Title                                    : SDH
Language                                 : English
Default                                  : No
Forced                                   : No



Download:
Share-Online.biz Share-Online.bizShare-Online.bizShare-Online.biz | Rapidgator.net Rapidgator.netRapidgator.netRapidgator.net
 

Kommentare